◎譯  名 槍火 / The Mission
◎片  名 鎗火
◎年  代 1999
◎產  地 中國香港
◎類  別 劇情 / 動作 / 犯罪
◎語  言 粵語
◎上映日期 1999-11-19(中國香港)
◎IMDb評分 7.5/10 from 4852 users
◎IMDb鏈接 https://www.imdb.com/title/tt0220644
◎豆瓣評分 8.7/10 from 163466 users
◎豆瓣鏈接 https://movie.douban.com/subject/1300741/
◎片  長 84分鐘(香港)
◎導  演 杜琪峰 Johnnie To
◎編  劇 遊乃海 Nai-Hoi Yau
◎主  演 吳鎮宇 Francis Ng
任達華 Simon Yam
黃秋生 Anthony Wong Chau-Sang
呂頌賢 Jackie Lui Chung-yin
張耀揚 Roy Cheung
林雪 Suet Lam
王天林 Tian-lin Wang
施綺蓮 Elaine Eca Da Silva
高雄 Eddy Ko
邱萬城 Samuel Yau
佐滕佳次 Keiji Sato
張誌平 Chi Ping Chang
黃華和 Wah Wo Wong
肖俊峰 Junfeng Xiao
鄭家生 Ka Sang Cheung
艾威 Wei Ai
羅永昌 Wing-cheong Law
錢江漢 Chin Cub

◎標  簽 杜琪峰 | 黑幫 | 香港 | 香港電影 | 吳鎮宇 | 動作 | 黃秋生 | 銀河映像

◎簡  介

黑社會老大文哥(高雄 飾)被人追殺,其弟阿南(任達華 飾)安排五個人來做其兄的保鏢,並命令他們查出暗殺文哥的幕後人物。這五人分別是阿鬼(黃秋生 飾)、阿來(吳鎮宇 飾)、阿Mike(張耀揚 飾)、阿信(呂頌賢 飾)和阿肥(林雪 飾)。阿來和阿信是知名的高手,阿鬼、阿Mike、阿肥則是金盆洗手的昔日英雄:阿鬼是文哥以前的手下,阿Mike是神槍手,阿肥是槍械專家。五人同心協力,將殺手擒獲,並查清了幕後主使人。五個不認識的江湖人成為肝膽相照的好友,這時,阿南告訴阿鬼,阿信與文哥之妻通奸,要求阿鬼去殺死阿信,阿來堅決不允許這麽做。阿Mike和阿肥又分別支持阿來和阿鬼,最後他們約定在壹家小餐廳解決這個問題,互相對準的槍口真是壹觸即發……

◎獲獎情況

第37屆臺北金馬影展(2000)
金馬獎 最佳劇情片(提名)
金馬獎 最佳導演 杜琪峰
金馬獎 最佳男主角 吳鎮宇
金馬獎 最佳男配角(提名) 林雪

第19屆香港電影金像獎(2000)
最佳電影(提名) 杜琪峰
最佳導演 杜琪峰
最佳男配角(提名) 林雪
最佳剪接(提名) 陳誌偉
最佳動作設計(提名) 鄭家生
最佳原創電影音樂(提名) 鐘誌榮

第1屆華語電影傳媒大獎(2001)
最佳編劇 遊乃海
年度十佳華語電影

General
Unique ID : 77260886023086566443740317984114220626 (0x3A1FE7C7C816667B180B93A40DC21E52)
Complete name : 槍火.The.Mission.1999.1080P.H265.AC3-DHTCLUB.mkv
Format : Matroska
Format version : Version 4
File size : 3.18 GiB
Duration : 1 h 23 min
Overall bit rate : 5 425 kb/s
Encoded date : UTC 2020-04-13 02:53:11
Writing application : mkvmerge v45.0.0 (‘Heaven in Pennies’) 64-bit
Writing library : libebml v1.3.10 + libmatroska v1.5.2

Video
ID : 1
Format : HEVC
Format/Info : High Efficiency Video Coding
Format profile : Main@L4.1@Main
Codec ID : V_MPEGH/ISO/HEVC
Duration : 1 h 23 min
Bit rate : 5 007 kb/s
Width : 1 920 pixels
Height : 1 080 pixels
Display aspect ratio : 16:9
Frame rate mode : Constant
Frame rate : 25.000 FPS
Original frame rate : 50.000 FPS
Color space : YUV
Chroma subsampling : 4:2:0
Bit depth : 8 bits
Bits/(Pixel*Frame) : 0.097
Stream size : 2.94 GiB (92%)
Default : Yes
Forced : No

Audio #1
ID : 2
Format : AC-3
Format/Info : Audio Coding 3
Commercial name : Dolby Digital
Codec ID : A_AC3
Duration : 1 h 23 min
Bit rate mode : Constant
Bit rate : 224 kb/s
Channel(s) : 2 channels
Channel layout : L R
Sampling rate : 48.0 kHz
Frame rate : 31.250 FPS (1536 SPF)
Compression mode : Lossy
Stream size : 135 MiB (4%)
Service kind : Complete Main
Default : No
Forced : No

Audio #2
ID : 3
Format : AC-3
Format/Info : Audio Coding 3
Commercial name : Dolby Digital
Codec ID : A_AC3
Duration : 1 h 23 min
Bit rate mode : Constant
Bit rate : 192 kb/s
Channel(s) : 2 channels
Channel layout : L R
Sampling rate : 48.0 kHz
Frame rate : 31.250 FPS (1536 SPF)
Compression mode : Lossy
Stream size : 115 MiB (4%)
Service kind : Complete Main
Default : Yes
Forced : No

Text
ID : 4
Format : UTF-8
Codec ID : S_TEXT/UTF8
Codec ID/Info : UTF-8 Plain Text
Duration : 1 h 18 min
Bit rate : 18 b/s
Count of elements : 569
Stream size : 10.7 KiB (0%)
Title : CHS
Language : Chinese
Default : Yes
Forced : No

Download:

hkclassic.xyz_The.Mission.1999.1080P.H265.part1.rar
hkclassic.xyz_The.Mission.1999.1080P.H265.part2.rar